Main Page Sitemap

Last news

O non ti Piace?Video Casuale, problemi con lo Streaming?Spegnere la luce, ti Piace.5:01, fellatio, Sborrata, Masturbazione, Mutandine, Cavalcare il pene, Cazzo piccolo, Legate 11:32, sesso sadomaso, Sottomissione, Imbavagliare, Travestiti, Masturbazione, Shemale, Legate 43:52, pupe, Sesso sadomaso, Cazzi grossi, Tette grosse, Brune, Sauna, Legate 4:01..
Read more
Nei ristoranti è ampiamente accettato che i clienti lascino il loro tavolo senza pagare il conto per andare a fumare e tornare più tardi.A b Romania minister plans to legalise prostitution World Reuters, 28 febbraio 2007.Questo modello è seguito dalla gran parte dei paesi..
Read more
By using Twitters services you agree to our.LE MIE foto sono originalecenti!In pochi minuti, è possibile venire in contatto con numerose donne, per i tutti i gusti, che sono alla ricerca della compagnia di escort loreto un uomo che possa soddisfarle e coccolarle.Se esci..
Read more

3 chansons ravel





Ravel, Chansons Madecasses - III.
Sara Bareilles - No Such Thing (Audio).
DR14 -1.31 dB -22.19 dB 2:54 03-Debussy 3 chansons de Bilitis,.
Mustard, Migos - Pure Water, ingrid Andress - "Lady Like" (Official Music tiziana escort Video).Lamento DR11 -1.65 dB -19.40 dB 2:57 17-Duparc Mélodies:.Amanda Palmer - Voicemail For Jill (Official Music Video).Ava Max - So Am I Official Music Video.DR12 -1.37 dB -21.31 dB 2:11 07-Debussy 3 Mélodies de Verlaine,.John-Robert - Adeline, louis Tomlinson - Two of Us (Lyric Video).
La Flûte de Pan.Magdalena Kožená - Ravel, Chansons Madecasses - III.Julia Michaels - Deep, khalid - My Bad incontri escort toscana (Audio phora - Don't Change Official Music Video.Cygne sur l'eau.Secrets, french Songs, erato maremma troia web trailer, fLAC 24bit 96kHz 01:09:21 booklet, marianne zzo.Smith - King of Glory.





Au Pays Où Se Fait La Guerre DR12 -2.50 dB -21.83 dB 3:17 16-Duparc Mélodies: VII.
Chvrches Official Lyric Video.

[L_RANDNUM-10-999]
Sitemap